Anunţ

Caută printre mesajele de pe forum înainte de a scrie unul nou!
Formulează corect întrebarea sau problema pe care o ai.
Respectă regulile forumului și Codul de Conduită!

#26 20 Oct 2011 21:35:59

marianvasile
Administrator
Locaţie: Bucuresti
Înregistrat: 15 Jan 2008
Mesaje: 4045

Re: cum pot transforma flv in avi sau mp3 ???

Vlc are funcție de conversie. E adevărat, mai puțin cunoscută, dar te poți baza pe ea.
http://i.imgur.com/Wf14Y.png


Tot ceea ce mâinile tale prind să săvârșească, fă cu hotărâre, pentru că în groapa în care te vei duce nu există nici faptă, nici punere la cale, nici știință și nici înțelepciune. (Ec. 9:10)

Offline

 

#27 20 Oct 2011 21:50:54

shackyBM
Membru nou
Locaţie: Baia Mare
Înregistrat: 16 Oct 2011
Mesaje: 15
Site web

Re: cum pot transforma flv in avi sau mp3 ???

cand dau pe convertire imi apare in terminal aceste mesaj care il arata la toate fisierele selectate:

Cod:

Input #0, mpeg, from '/media/Muzica/Dance.Hits.90s.Retro.Dance.Party.BoxSet.1990-1999.PAL.MDVD9-41RGB/Disc 1/VIDEO_TS/VTS_01_7.VOB':
  Duration: 00:23:39.29, start: 8525.441667, bitrate: 6052 kb/s
    Stream #0.0[0x1e0]: Video: mpeg2video (Main), yuv420p, 720x576 [PAR 16:15 DAR 4:3], 4389 kb/s, 26.72 fps, 25 tbr, 90k tbn, 50 tbc
    Stream #0.1[0xa0]: Audio: pcm_s16be, 48000 Hz, 2 channels, s16, 1536 kb/s
Unknown encoder 'libmp3lame'
ffmpeg version 0.7.2-4:0.7.2-1ubuntu1, Copyright (c) 2000-2011 the Libav developers
  built on Oct  2 2011 15:13:26 with gcc 4.6.1
  configuration: --extra-version='4:0.7.2-1ubuntu1' --arch=amd64 --prefix=/usr --enable-vdpau --enable-bzlib --enable-libgsm --enable-libschroedinger --enable-libspeex --enable-libtheora --enable-libvorbis --enable-pthreads --enable-zlib --enable-libvpx --enable-runtime-cpudetect --enable-vaapi --enable-gpl --enable-postproc --enable-swscale --enable-x11grab --enable-libdc1394 --enable-shared --disable-static
  libavutil    51.  7. 0 / 51.  7. 0
  libavcodec   53.  5. 0 / 53.  5. 0
  libavformat  53.  2. 0 / 53.  2. 0
  libavdevice  53.  0. 0 / 53.  0. 0
  libavfilter   2.  4. 0 /  2.  4. 0
  libswscale    2.  0. 0 /  2.  0. 0
  libpostproc  52.  0. 0 / 52.  0. 0
[mpeg2video @ 0x20a1d40] mpeg_decode_postinit() failure
[mpeg @ 0x209d340] max_analyze_duration reached
Input #0, mpeg, from '/media/Muzica/Dance.Hits.90s.Retro.Dance.Party.BoxSet.1990-1999.PAL.MDVD9-41RGB/Disc 1/VIDEO_TS/VTS_01_8.VOB':
  Duration: 00:04:36.69, start: 9944.741667, bitrate: 6011 kb/s
    Stream #0.0[0xa0]: Audio: pcm_s16be, 48000 Hz, 2 channels, s16, 1536 kb/s
    Stream #0.1[0x1e0]: Video: mpeg2video (Main), yuv420p, 720x576 [PAR 16:15 DAR 4:3], 4389 kb/s, 25 fps, 25 tbr, 90k tbn, 50 tbc
Unknown encoder 'libmp3lame'
Press Enter to Continue

Editat ultima oară de shackyBM (20 Oct 2011 21:52:04)


Donec eris felix, multos numerabis amicos

Offline

 

#28 20 Oct 2011 22:25:05

marianvasile
Administrator
Locaţie: Bucuresti
Înregistrat: 15 Jan 2008
Mesaje: 4045

Re: cum pot transforma flv in avi sau mp3 ???

sudo apt-get install libavcodec-extra-52
sudo apt-get install libavcodec-extra-53            <---------doar pentru Oneiric


Tot ceea ce mâinile tale prind să săvârșească, fă cu hotărâre, pentru că în groapa în care te vei duce nu există nici faptă, nici punere la cale, nici știință și nici înțelepciune. (Ec. 9:10)

Offline

 

#29 21 Oct 2011 08:16:30

DoruPiroi
Membru
Locaţie: Giurgiu
Înregistrat: 24 Mar 2011
Mesaje: 156

Re: cum pot transforma flv in avi sau mp3 ???

Incearca WinFF

Offline

 

#30 21 Oct 2011 21:34:08

shackyBM
Membru nou
Locaţie: Baia Mare
Înregistrat: 16 Oct 2011
Mesaje: 15
Site web

Re: cum pot transforma flv in avi sau mp3 ???

marianvasile a scris:

sudo apt-get install libavcodec-extra-52
sudo apt-get install libavcodec-extra-53            <---------doar pentru Oneiric

da , functioneaza, acum merge, totul este OK, pot sa Convertesc Fisiere DVD in MP3


multumesc mult! esti un domn


Donec eris felix, multos numerabis amicos

Offline

 

#31 25 Nov 2011 13:51:20

cristi-marineru
Membru
Înregistrat: 27 Nov 2008
Mesaje: 71

Re: cum pot transforma flv in avi sau mp3 ???

pentru conversie flv >mp3 eu folsesc de ceva timp sound converter (il gasesti in ubuntu software center) , e foarte simplu si isi face treaba


Linux doesn't need no viruses. The users **** up the system by themselves.

Offline

 
Feed

Antet forum

Powered by FluxBB